Web Analytics Made Easy - StatCounter
FoulsCode

Εμφάνιση αναρτήσεων με ετικέτα TV. Εμφάνιση όλων των αναρτήσεων
Εμφάνιση αναρτήσεων με ετικέτα TV. Εμφάνιση όλων των αναρτήσεων

17 Νοεμβρίου 2017

THE VOICE GREECE B' ΣAIZON (2017) EP.1-15



Κατεβάστε τα επεισόδια δωρεάν Μονο Από Το FOULSCOSE.COM
Τα επεισόδια θα προσθέτονται συνεχώς


THE VOICE GREECE B' ΣAIZON (2017) SKAI WEBRip AVI ΕΩΣ ΤΟ 12 (7/11/2017)



Ο πιο δημοφιλής μουσικός διαγωνισμός παγκοσμίως έρχεται για δεύτερη χρονιά στον ΣΚΑΪ.
Ο μουσικός διαγωνισμός που κατέκτησε το κοινό σε περισσότερες από 50 χώρες σε ολόκληρο τον κόσμο θα αναζητήσει την καλύτερη φωνή της Ελλάδας.
Παρουσιάζει o Γιώργος Καπουτζίδης. Κριτές είναι οι: Κωστής Μαραβέγιας, Πάνος Μουζουράκης, Έλενα Παπαρίζου και ο Σάκης Ρουβάς. The Voice of Greece...








General
Complete name :THE.VOICE.S02.EP.01.720p.avi
Format : AVI
Format/Info : Audio Video Interleave
File size : 2.27 GiB
Duration : 2 h 27 min
Overall bit rate : 2 201 kb/s
Video #0
ID : 0
Format : AVC
Format/Info : Advanced Video Codec
Format profile : Baseline@L3.1
Format settings, CABAC : No
Format settings, ReFrames : 1 frame
Codec ID : H264
Duration : 2 h 27 min
Bit rate : 2 060 kb/s
Width : 1 280 pixels
Height : 720 pixels
Display aspect ratio : 16:9
Frame rate : 25.000 FPS
Color space : YUV
Chroma subsampling : 4:2:0
Bit depth : 8 bits
Scan type : Progressive
Bits/(Pixel*Frame) : 0.089
Stream size : 2.13 GiB (94%)
Writing library : x264 core 146 r2538 121396c

Audio #1
ID : 1
Format : MPEG Audio
Format version : Version 1
Format profile : Layer 3
Codec ID : 55
Codec ID/Hint : MP3
Duration : 2 h 27 min
Bit rate mode : Constant
Bit rate : 128 kb/s
Channel(s) : 2 channels
Sampling rate : 48.0 kHz
Compression mode : Lossy
Stream size : 135 MiB (6%)
Alignment : Aligned on interleaves
Interleave, duration : 24 ms (0.60 video frame)













THE.VOICE.S02.EP.01.720p



THE.VOICE.S02.EP.03.720p

THE.VOICE.S02.EP.03.720p

THE.VOICE.S02.EP.05.720p




THE.VOICE.S02.EP.06.720p



THE.VOICE.S02.EP.07.720p



THE.VOICE.S02.EP.08.720p





THE.VOICE.S02.EP.09.720p




THE.VOICE.S02.EP.10.720p




THE.VOICE.S02.EP.11.720p



THE.VOICE.S02.EP.12.720p



THE.VOICE.S02.EP.13.720p



THE.VOICE.S02.EP.14.720p



THE.VOICE.S02.EP.15.720p

Διαβάστε Περισσότερα »

9 Νοεμβρίου 2017

Δείτε ζωντανά το πρόγραμμα από το κανάλι NASA TV







NASA TV airs a variety of regularly scheduled, pre-recorded educational and public relations programming 24 hours a day on its various channels. Programs include "NASA Gallery", which features photographs and video from NASA's history; "Video File", which broadcasts b-roll footage for news and media outlets; "Education File", which provides special programming for schools; "NASA Edge" and "NASA 360", hosted programs that focus on different aspects of NASA; and "This Week @ NASA", which shows news from NASA centers around the country. Live ISS coverage and related commentary is aired daily at 11 a.m. EST and repeats throughout the day.[7] The network also provides an array of live programming, such as 24-hour coverage of Space Shuttle missions, ISS events (spacewalks, media interviews, educational broadcasts), press conferences and rocket launches. These often include running commentary by members of the NASA Public Affairs Office who serve as the "voice of Mission Control," including Rob Navias, Josh Byerly, Nicole Cloutier and Brandi Dean. In the United States, NASA Television's Public and Media channels are MPEG-2 digital C-band signals carried by QPSK/DVB-S modulation on satellite AMC-3, transponder 15C, at 87 degrees west longitude. Downlink frequency is 4000 MHz, horizontal polarization, with a data rate of 38.86 Mhz, symbol rate of 28.1115 Ms/s, and ¾ FEC. A Digital Video Broadcast (DVB) compliant Integrated Receiver Decoder (IRD) is needed for reception.
Διαβάστε Περισσότερα »

MPAA: Το 70% των 38 εκ. χρηστών του Kodi είναι «πειρατές»



Κατά τη διάρκεια μιας συζήτησης που διοργανώθηκε από την Copyright Alliance, ο Senior Vice President της MPAA, Neil Fried αναφέρθηκε στην πλατφόρμα του Kodi, επισημαίνοντας ορισμένα ενδιαφέροντα στοιχεία. Περίπου 12 εκατομμύρια το χρησιμοποιούν νόμιμα, ενώ 26 εκατομμύρια χρήστες τοποθετούν πειρατικά addons. Είναι γεγονός, ότι τα torrents και άλλες μορφές file-sharing παρουσιάζουν σταδιακή κάμψη, με το streaming να αποτελεί το ανερχόμενο μοντέλο. Όπως είχε αποκαλύψει η Καναδική εταιρεία broadband management, Sandvine, το IPTV traffic έχει παρουσιάσει ραγδαία αύξηση. Η Sandvine ανακάλυψε, ότι το 6.5% των νοικοκυριών στη Βόρεια Αμερική, επικοινωνούν με γνωστές πειρατικές υπηρεσίες TV. Αυτό μεταφράζεται σε επτά εκατομμύρια συνδρομητές και πολλούς πιθανούς θεατές.

Όπως και πολλοί πριν από αυτόν, ο Neil Fried εξήγησε ότι η πλατφόρμα του Kodi στη βασική εκδοχή της είναι νόμιμη. Ωστόσο, είναι τα add-ons του media player που παρέχουν πρόσβαση σε πειρατικό περιεχόμενο. Το torrentfreak επικοινώνησε με τον πρόεδρο του XBMC Foundation, Nathan Betzen, προκειμένου να του ζητήσει την άποψή του για τα συγκεκριμένα νούμερα. Ο ίδιος, υποστήριξε ότι δεν γνωρίζει έναν συγκεκριμένο αριθμό και από την στιγμή που δεν παρακολουθούν τους χρήστες, δεν υπάρχει τρόπος να γνωρίζουν τι κάνουν με το Kodi, ανέφερε χαρακτηριστικά. Οι αριθμοί της MPAA μπορεί να είναι απολύτως σωστοί, ή εντελώς κατασκευασμένοι προσθέτει.

Έχοντας επισημάνει αυτό, η ομάδα είχε την ικανότητα να μετρήσει τη συνολική χρήση του Kodi, παρά το γεγονός ότι δεν δημοσιεύει τα αποτελέσματα. Αυτό μάλιστα, είχε αποκαλυφθεί το 2011, όταν το Kodi αποκαλούνταν ακόμη XBMC. «Το σύστημα addon μας δίνει τη δυνατότητα να αξιολογήσουμε τον δημοφιλή χαρακτήρα των addons, να μετρήσουμε τη βάση χρηστών, τη συχνότητα που οι χρήστες αναβαθμίζουν το λογισμικό. Επιπλέον, μπορούμε να μετρήσουμε τις ενεργές εγκαταστάσεις του XBMC», έγραφε τότε η ομάδα.

Το torrentfreak ρώτησε και το kodi addon repository, TVAddons, ποια είναι η άποψή του για αυτούς τους αριθμούς. «Πάντα απαγορεύαμε τη χρήση analytics με τα Kodi addons επομένως είναι πολύ δύσκολο για εμάς να κάνουμε έναν υπολογισμό. Φαίνεται ότι η MPAA δημοσιεύει αριθμούς, χωρίς ιδιαίτερη στατιστική εγκυρότητα, χαρακτηρίζοντας πολλούς χρήστες ως πειρατές, όπως κάνει και με απολύτως νόμιμες υπηρεσίες, όπως το CloudFlare».


Σχετική συζήτηση στο forum: XBMC/Kodi/SPMC σετάρισμα Add-ons & Repository


[via] | myphone.gr
Διαβάστε Περισσότερα »

8 Νοεμβρίου 2017

ΚΩΣΤΗΣ ΠΑΛΑΜΑΣ (1993) TVRip - COMPLETE



ΚΩΣΤΗΣ ΠΑΛΑΜΑΣ (1993) TVRip - COMPLETE

Τίτλος τηλεοπτικής σειράς: Κωστής Παλαμάς (1993)

Έτος: 1993

Τηλεοπτική Σειρά

Κανάλι: ΕΤ1

Αριθμός επεισοδίων: 20

Διάρκεια επεισοδίου: 30'

Είδος: Βιογραφική

Παραγωγός: Ελβίρα Ράλλη

Σκηνοθεσία: Κωστής Τσώνος

Συγγραφέας: Αλεξάνδρα Στεφανοπούλου

Σενάριο: Αλεξάνδρα Στεφανοπούλου

Μουσική σύνθεση: Γιώργος Μαυραζάκης

Ηθοποιοί: Πέτρος Φυσσούν (Κωστής Παλαμάς) , Χρήστος Ευθυμίου (Παλαμάς, νέος) , Αγγελική Βελουδάκη (Μαρία Παλαμά) , Ανδρέας Βλαχοκυριάκος (Λέανδρος Παλαμάς) , Κοσμάς Ζαχάρωφ (Λίνος Πολίτης) , Βασίλης Καϊλας (Γεώργιος Δροσίνης) , Σπύρος Μπιμπίλας (Γρηγόρης Μολφέδος) , Κώστας Πανουργιάς (Απόστολος Βάλβης) , Κλεό Σκουλούδη (Χρύσα Βάλβη) , Νίκος Γαροφάλλου (Δημήτρης Παλαμάς) , Μιχάλης Γούναρης (Νίκος Παλαμάς) , Χριστόφορος Παπακαλιάτης (Χρηστάκης Παλαμάς) , Γιώργος Παπάζογλου (Παλαμάς, παιδί) , Εύα Φρυδάκη (Αγγελική Παλαμά) , Χρύσα Σπηλιώτη (Ναυσικά) , Βάσω Γουλιελμάκη (Αννίκα) , Μαρία Δεκουλάκου (Λενιώ) , Ράνια Καρανίκα (Φωτεινούλα) , Νίκος Καραστέργιος (ξάδελφος Παλαμά) , Αλέξανδρος Κολιόπουλος (Χαδούλης) , Γιάννης Λεμπέσης (χωροφύλακας) , Μπέσυ Μάλφα (Μασίγγα) , Νίκη Παλληκαράκη (Ανθούλα) , Πέρσα Σούκα (Βγενιώ) , Φωκάς Χατζηθεοδώρου (ξάδελφος Παλαμά) , Θανάσης Νάκος , Αρτό Απαρτιάν , Χρυσούλα Παπαδοπούλου , Πίτσα Μπουρνόζου , Ελένη Τζώρτζη , Χρόνης Παυλίδης , Γρηγόρης Ορφανουδάκης , Στέλλα Φαίητ , Νένα Χρονοπούλου (Στέλλα Διαλέτη) , Αλίκη Αλεξανδράκη (Αλτάνα Παλαμά) , Αθηνά Τσιλύρα (Φωτεινή Οικονομίδη) , Τάκης Χρυσικάκος (Άγγελος Σικελιανός) , Γρηγόρης Βαλτινός (Λορέντζος Μαβίλης) , Τόνια Ζησίμου (Ραχήλ) , Άννα Αδριανού (Πηνελόπη Δέλτα) , Άννα Γεραλή , Χριστίνα Θεοδωροπούλου (Μυρτιώτισσα) , Πάνος Σκουρολιάκος (Γεώργιος Σουρής) , Έλλη Φωτίου (Πηνελόπη Παλαμά)

Σύνοψη

Η ζωή, οι έρωτες και η καριέρα του εθνικού ποιητή από τη γέννησή του στην Πάτρα το 1859 μέχρι το θάνατο και την πάνδημη κηδεία του στα χρόνια της Κατοχής (1943) που απετέλεσε ταυτόχρονα και μια μεγάλη πράξη εθνικής αντίστασης. Ελεύθερη διασκευή του βιβλίου της Αλεξάνδρας Στεφανοπούλου «Ο δωδεκάλογος του έρωτα». Χαμηλόφωνη σκηνοθεσία και πλούσιο κάστινγκ σε μια σειρά που προσεγγίζει τον εθνικό μας ποιητή περισσότερο μέσα από την ερωτική και συναισθηματική του ζωή, παρά από το έργο του.



ΤΕΧΝΙΚΑ ΧΑΡΑΚΤΗΡΙΣΤΙΚΑ

Σπόιλερ:

General
Complete name : Kwsths.Palamas.E01-E02.PDTV-Ft4U.mkv
Format : Matroska
Format version : Version 2
File size : 409 MiB
Duration : 48 min 33 s
Overall bit rate : 1 178 kb/s
Encoded date : UTC 2017-10-19 13:13:46
Writing application : mkvmerge v4.7.0 ('Just Like You Imagined') built on Apr 21 2011 01:13:14
Writing library : libebml v1.2.0 + libmatroska v1.1.0

Video
ID : 1
Format : AVC
Format/Info : Advanced Video Codec
Format profile : High@L4
Format settings : CABAC / 5 Ref Frames
Format settings, CABAC : Yes
Format settings, RefFrames : 5 frames
Codec ID : V_MPEG4/ISO/AVC
Duration : 48 min 33 s
Width : 640 pixels
Height : 480 pixels
Display aspect ratio : 4:3
Frame rate mode : Constant
Frame rate : 25.000 FPS
Color space : YUV
Chroma subsampling : 4:2:0
Bit depth : 8 bits
Scan type : Progressive
Writing library : x264 core 115 r1995 c1e60b9
Encoding settings : cabac=1 / ref=5 / deblock=1:0:0 / analyse=0x3:0x113 / me=umh / subme=8 / psy=1 / psy_rd=1.00:0.00 / mixed_ref=1 / me_range=16 / chroma_me=1 / trellis=1 / 8x8dct=1 / cqm=0 / deadzone=21,11 / fast_pskip=1 / chroma_qp_offset=-2 / threads=12 / sliced_threads=0 / nr=0 / decimate=1 / interlaced=0 / bluray_compat=0 / constrained_intra=0 / bframes=3 / b_pyramid=2 / b_adapt=2 / b_bias=0 / direct=3 / weightb=1 / open_gop=0 / weightp=2 / keyint=100 / keyint_min=10 / scenecut=40 / intra_refresh=0 / rc_lookahead=50 / rc=crf / mbtree=1 / crf=20.0 / qcomp=0.60 / qpmin=0 / qpmax=69 / qpstep=4 / vbv_maxrate=20000 / vbv_bufsize=25000 / crf_max=0.0 / nal_hrd=none / ip_ratio=1.40 / aq=1:1.00
Default : Yes
Forced : No

Audio
ID : 2
Format : AAC
Format/Info : Advanced Audio Codec
Format profile : HE-AAC / LC
Format settings : Explicit
Codec ID : A_AAC-2
Duration : 48 min 33 s
Channel(s) : 2 channels
Channel positions : Front: L R
Sampling rate : 48.0 kHz / 24.0 kHz
Frame rate : 23.438 FPS (1024 SPF)
Compression mode : Lossy
Language : Greek
Default : Yes
Forced : No







Διαβάστε Περισσότερα »

ΕΛΛΗΝΟΦΡΕΝΕΙΑ ALPHA ΤV WEBRip (2017-18)







Φάγαμε την καμήλα και μας έμεινε μόνο η ουρά… Η κλασική αυτή ελληνική παροιμία ισχύει στην περίπτωση της «Ελληνοφρένειας»,
της οποίας ο χρόνος εμφάνισης στις τηλεοπτικές οθόνες μετρά αντίστροφα.

Μερικά χιλιόμετρα από την κορυφή του Υμηττού, γήινοι… μάλλον, συντελεστές, προετοιμάζουν την αλλαγή ταυτότητας της εκπομπής.
Στο πλαίσιο αυτής της αλλαγής,
η «Ελληνοφρένεια», φέτος, προβάλλεται μία φορά την εβδομάδα, κάθε Τρίτη στις 23:00.

Στο περιεχόμενο, οι αλλαγές περιλαμβάνουν:
Νέο αναβαθμισμένο ρόλο του Τσολιά, με συνεντεύξεις σε πρόσωπα της πολιτικής - καλλιτεχνικής ζωής αλλά και στοχευμένες εξορμήσεις του στους δρόμους της Αθήνας.

Νέο υποβαθμισμένο ρόλο του Μπαλούρδου, στο τηλεοπτικό κανάλι, μιας και οι στενές σχέσεις του με το Μέγαρο Μαξίμου
περνούν σε φάση έντονης κρίσης και πολεμικής αντιπαράθεσης.

Νέα διαβαθμισμένη σχέση Μπαλούρδου - Τσολιά, μιας και οι δυο τους μπαίνουν σε φάση «εμφυλίου» πολέμου για τη δημοσιογραφική καταξίωση
και ανέλιξη στον ανταγωνιστικό κόσμο της τηλεόρασης.

Αιφνιδιαστικές επισκέψεις σε κομβικά σημεία όπου χτυπά η καρδιά της κοινωνικής και πολιτικής επικαιρότητας, με επιτόπια ρεπορτάζ,
από επιτόπιο και δαιμόνιο ρεπόρτερ. Πάντα επιτόπου.

Ανατρεπτικά βίντεο, καλεσμένοι έκπληξη, πρόσωπα και απρόσωπα της επικαιρότητας, σαρδάμ, αριστερά ψέματα, δεξιές υποσχέσεις,
λαϊκές ματαιοδοξίες, λαϊκές αυταπάτες, δαίμονες και ιδέες έμμονες.

Επίσης, οι αλλαγές που πρότεινε ο εξωγήινος του Υμηττού, μεταξύ άλλων περιλαμβάνουν:
Τον Αλέξη Τσίπρα, στον ρόλο του αριστερού. Τον Κυριάκο Μητσοτάκη, στον ρόλο του φιλελεύθερου. Τον Βασίλη Λεβέντη, στον ρόλο του θεοσεβούμενου.
Τον Άδωνη, στον ρόλο του πράου. Τον Τσακαλώτο, στον ρόλο του φιλέλληνα. Την Φώφη Γεννηματά, στον ρόλο της κεντροαριστεράς. Την κεντροαριστερά,
στον ρόλο της Φώφης. Την Ζακέτα να πάρεις.
Τη διαπλοκή, στον ρόλο των ΜΜΕ. Τον Καμίνη, δήμαρχο. Το ευρώ, στην τσέπη λίγων.
Τον ΕΝΦΙΑ, στον ρόλο σπιτονοικοκύρη. Την τηλεόραση, στον ρόλο της σοβαρής.
Τη δημοσιογραφία, στον ρόλο της αντικειμενικής. Τον ελληνικό λαό, στον ρόλο του κυρίαρχου. Την «Ελληνοφρένεια», στον ρόλο του καθρέφτη και τα «περαστικά»,
την σωστότερη ευχή της εποχής.










General
Complete name :ΕΛΛΗΝΟΦΡΕΝΕΙΑ\FRENA.EP.01.avi
Format : AVI
Format/Info : Audio Video Interleave
File size : 952 MiB
Duration : 47 min 23 s
Overall bit rate : 2 810 kb/s
Video #0
ID : 0
Format : AVC
Format/Info : Advanced Video Codec
Format profile : Baseline@L3
Format settings, CABAC : No
Format settings, ReFrames : 1 frame
Codec ID : H264
Duration : 47 min 23 s
Bit rate : 2 669 kb/s
Width : 640 pixels
Height : 352 pixels
Display aspect ratio : 16:9
Frame rate : 25.000 FPS
Color space : YUV
Chroma subsampling : 4:2:0
Bit depth : 8 bits
Scan type : Progressive
Bits/(Pixel*Frame) : 0.474
Stream size : 904 MiB (95%)
Writing library : x264 core 146 r2538 121396c

Audio #1
ID : 1
Format : MPEG Audio
Format version : Version 1
Format profile : Layer 3
Codec ID : 55
Codec ID/Hint : MP3
Duration : 47 min 23 s
Bit rate mode : Constant
Bit rate : 128 kb/s
Channel(s) : 2 channels
Sampling rate : 44.1 kHz
Compression mode : Lossy
Stream size : 43.4 MiB (5%)
Alignment : Aligned on interleaves
Interleave, duration : 26 ms (0.65 video frame)











FRENA.EP.01

Διαβάστε Περισσότερα »

21 Οκτωβρίου 2017

Ελληνική Τηλεόραση και Ραδιόφωνο








Δυο αρχεία με λίστες αναπαραγωγής πολυμέσων (playlist)

για όσους θέλουν να παρακολουθούν τηλεόραση

ή να ακούνε ραδιόφωνο στον υπολογιστή τους από το διαδίκτυο

όπως εγώ για όλους τους φίλους του thegreekz.


Η λίστα τηλεόρασης περιέχει 40+ ελληνικά τηλεοπτικά κανάλια

η δε ραδιοφωνική λίστα 1150 + ελληνικούς ραδιοφωνικούς σταθμούς.


Είναι σε μορφή .m3u (για την τηλεόραση) & .xspf (για τους ραδιοφωνικούς σταθμούς )

ώστε να μπορούν να αναπαραχθούν από όλα τα μέσα αναπαραγωγής εικόνας και ήχου.

Εγώ χρησιμοποιώ το VLC αλλά θα παίξουν σε όποιον Player τις φορτώσετε.


Μπορείτε επίσης να τις ανοίξετε με όποιον text editor

και να αντιγράψετε / ενημερώσετε / διορθώσετε τα link των σταθμών.


Τα επιμέρους link [ αν μπείτε σε αυτή την διαδικασία ]

μπορείτε να τα κάνετε εισαγωγή στον player σαν url

η στα Linux μπορείτε να τα κάνετε stream και μέσω τερματικού

με την εκτέλεση του ffplay ή avplay [ανάλογα με τα εγκατεστημένα ffmpeg ή Libav πακέτα]


η εντολή που δίνουμε είναι :

Κώδικας:

ffplay +stream σταθμού

για παράδειγμα για τον Real FM

Κώδικας:

ffplay http://realfm.megabyte.gr:8999


ή για τον BlueSky


Κώδικας:

ffplay http://88.198.238.44:1935/live/bluesky/playlist.m3u8


Οι τηλεοπτικοί σταθμοί ελέχθηκαν σήμερα 9/8/2015 και λειτουργούν όλοι.

Λείπει το Star ...άλλαξαν πρωτόκολλο και ακόμα ψάχνω το stream.

Οι ραδιοφωνικοί σταθμοί είναι αδύνατον να ελεγχθούν όλοι .

καθώς και πολλοί είναι και κάποιοι εκπέμπουν μόνο συγκεκριμένες ώρες.

Download

http://www.mediafire.com/download/ks...adio+Lists.zip
Διαβάστε Περισσότερα »
Related Posts Plugin for WordPress, Blogger...